60MB | 90MB Encoded Anime DownloadFairy Tail the Movie-Priestess of the Phoenix [2012] Dual Audio |720p | EngSub

Fairy Tail the Movie-Priestess of the Phoenix [2012] Dual Audio |720p | EngSub

0.00 avg. rating (0% score) - 0 votes

fairy_tail_movie_1_houou_no_miko

The film revolves around a mysterious girl named Éclair who appears before Fairy Tail, the world’s most notorious wizard’s guild. She lost all of her memories,except for the imperative that she must deliver two Phoenix Stones somewhere. The stones may spell the collapse of the magical world, and Natsu, Lucy, and the rest of the Fairy Tail guild are caught up in the intrigue.

Info:
Format : Matroska
File size : 851 MiB
Duration : 1h 26mn
Overall bit rate : 1 383 Kbps

Video
Format : AVC
Format/Info : Advanced Video Codec
Format profile : High [email protected]
Duration : 1h 26mn
Bit rate : 972 Kbps
Width : 1 280 pixels
Height : 720 pixels
Display aspect ratio : 16:9
Frame rate : 23.976 fps
Chroma subsampling : 4:2:0
Bit depth : 10 bits
Stream size : 598 MiB (70%)

Audio 1
Format : AC-3
Bit rate : 192 Kbps
Channel(s) : 6 channels
Sampling rate : 48.0 KHz
Stream size : 118 MiB (14%)
Language : English

Audio 2
Format : AC-3
Bit rate : 192 Kbps
Channel(s) : 6 channels
Sampling rate : 48.0 KHz
Stream size : 118 MiB (14%)
Language : Japanese

Subs 1
Format : ASS
Title : English Signs/Songs
Language : English

Subs 2
Format : ASS
Title : English Subtitles
Language : English

Download Link:
http://clicknupload.com/a90fl9wwr59m

Streaming Link:

Download Fairy Tail the Movie-Priestess of the Phoenix [2012] Dual Audio |720p | EngSub

Comments are closed.